Скачать Need for Speed: Жажда скорости / Need for Speed (2014) BDRip 1080p | 3D-Video | halfOU через торрент бесплатно

Торрент [ Статус: Проверен ] Скачать Сидеров Личеров Размер
NeedForSpeed20143D-halfOU.torrent
Подробнее
Скачать торрент Скачать через магнет ссылку 256 11 9.32 ГБ
Аватара пользователя
admin
Администратор
Администратор
Сообщения: 8055
Зарегистрирован: 13 дек 2013, 01:15
Благодарил (а): 22 раза
Поблагодарили: 1 раз
Контактная информация:
Need for Speed: Жажда скорости / Need for Speed (2014) BDRip 1080p | 3D-Video | halfOU

Сообщение admin » 30 июл 2014, 19:54

Год выпуска: 2014
Страна: США, Филиппины, Ирландия, Великобритания (Touchstone Pictures, DreamWorks SKG, Reliance Entertainment, EA [Electronic Arts])
Жанр: Боевик, Триллер, Драма, Криминал
Продолжительность: 2:10:53
Перевод: Профессиональный дублированный (Лицензия)
Режиссер: Скотт Во / Scott Waugh

Роли исполняли (дублировали):
Tobey Marshall - Аарон Пол (Сергей Куницкий)
Dino Brewster - Доминик Купер (Стас Войнич)
Julia Maddon - Имоджен Путс (Марина Гладкая)
Anita - Дакота Джонсон
Monarch - Майкл Китон (Станислав Концевич)
Joe Peck - Рамон Родригес
Officer Lejeune - Ник Чинланд (Максим Сергеев)
Benny - Скотт Мескади (Валерий Смекалов)
Finn - Рами Малек (Андрей Лёвин)
Little Pete - Харрисон Джилбертсон
Bill Ingram - Стиви Рэй Дэллимор


Описание: История Тоби Маршалла, гениального автомеханика, чьей единственной отдушиной является участие в подпольных гонках. Чтобы сохранить семейную мастерскую, Тоби вынужден взять в партнеры богатого и заносчивого бывшего гонщика NASCAR Дино Брюстера. Когда дела Тоби наконец-то начинают идти в гору, Дино подставляет партнера, и Тоби обвиняют в преступлении, которого он не совершал. Спустя два года Тоби выходит из тюрьмы с мыслью о мести. Чтобы достичь своей цели, ему придется совершить невозможное и доказать, что даже в мире броских суперкаров самый невзрачный гонщик может финишировать первым.



Качество: BDRip (1080p)
Контейнер: MKV
Формат 3D: Half OverUnder / Вертикальная анаморфная стереопара
Порядок ракурсов: левый ракурс первый
Видео кодек: x264
Аудио кодек: AC3

Видео: AVC / 23,976 fps / 1920х1080p / ~8.7 Mbps
Аудио:#1 - Русский / AC3 / 48 KHz / 5.1 ch / 640 Kbps (Дубляж - BD 3D Eur)
Аудио:#2 - Английский / AC3 / 48 KHz / 5.1 ch / 640 Kbps (Original - BD 3D Eur)

Субтитры: (SRT)
Вшитые (softsub):
#1 - Русские Форсированные (включены по умолчанию)
#2 - Русские Полные
#3 - English Full
#4 - English SDH
#5 - English SDH-Colored

Внешние (UTF-8):
#1 - Русские Форсированные (включены по умолчанию)
[spoiler="Для оценки 3Д - Анимированные скрины"] [/spoiler]
[spoiler="MI"]General
Unique ID : 228551946845806782940624535308354455397 (0xABF180FADC6579E18FC6BF3FB2180765)
Complete name : E: Need For Speed (2014) 3D-halfOU.mkv
Format : Matroska
Format version : Version 2
File size : 9.32 GiB
Duration : 2h 10mn
Overall bit rate : 10.2 Mbps
Movie name : Need for Speed: Жажда скорости / Need for Speed (2014) 3D
Encoded date : UTC 2014-07-29 16:26:29
Writing application : mkvmerge v5.8.0 ('No Sleep / Pillow') built on Sep 2 2012 15:37:04
Writing library : libebml v1.2.3 + libmatroska v1.3.0

Video
ID : 1
Format : AVC
Format/Info : Advanced Video Codec
Format profile : [email protected]
Format settings, CABAC : Yes
Format settings, ReFrames : 4 frames
Codec ID : V_MPEG4/ISO/AVC
Duration : 2h 10mn
Bit rate : 8 715 Kbps
Width : 1 920 pixels
Height : 1 080 pixels
Display aspect ratio : 16:9
Frame rate mode : Constant
Frame rate : 23.976 fps
Color space : YUV
Chroma subsampling : 4:2:0
Bit depth : 8 bits
Scan type : Progressive
Bits/(Pixel*Frame) : 0.175
Stream size : 7.97 GiB (85%)
Title : BDRip by Ash61
Writing library : x264 core 138 r2358 9e941d1
Encoding settings : cabac=1 / ref=4 / deblock=1:-3:-3 / analyse=0x3:0x113 / me=umh / subme=10 / psy=1 / psy_rd=1.00:0.15 / mixed_ref=1 / me_range=32 / chroma_me=1 / trellis=2 / 8x8dct=1 / cqm=0 / deadzone=21,11 / fast_pskip=1 / chroma_qp_offset=-3 / threads=12 / lookahead_threads=2 / sliced_threads=0 / nr=0 / decimate=1 / interlaced=0 / bluray_compat=0 / constrained_intra=0 / bframes=9 / b_pyramid=2 / b_adapt=2 / b_bias=0 / direct=3 / weightb=1 / open_gop=0 / weightp=2 / keyint=250 / keyint_min=23 / scenecut=40 / intra_refresh=0 / rc_lookahead=60 / rc=crf / mbtree=1 / crf=17.0 / qcomp=0.70 / qpmin=0 / qpmax=69 / qpstep=4 / vbv_maxrate=40000 / vbv_bufsize=30000 / crf_max=0.0 / nal_hrd=none / frame-packing=4 / ip_ratio=1.40 / aq=1:0.70
Language : English
Default : Yes
Forced : No

Audio #1
ID : 2
Format : AC-3
Format/Info : Audio Coding 3
Mode extension : CM (complete main)
Format settings, Endianness : Big
Codec ID : A_AC3
Duration : 2h 10mn
Bit rate mode : Constant
Bit rate : 640 Kbps
Channel(s) : 6 channels
Channel positions : Front: L C R, Side: L R, LFE
Sampling rate : 48.0 KHz
Bit depth : 16 bits
Compression mode : Lossy
Stream size : 599 MiB (6%)
Title : Дубляж - BD 3D Eur
Language : Russian
Default : Yes
Forced : No

Audio #2
ID : 3
Format : AC-3
Format/Info : Audio Coding 3
Mode extension : CM (complete main)
Format settings, Endianness : Big
Codec ID : A_AC3
Duration : 2h 10mn
Bit rate mode : Constant
Bit rate : 640 Kbps
Channel(s) : 6 channels
Channel positions : Front: L C R, Side: L R, LFE
Sampling rate : 48.0 KHz
Bit depth : 16 bits
Compression mode : Lossy
Stream size : 599 MiB (6%)
Title : Original - BD 3D Eur
Language : English
Default : No
Forced : No

Text #1
ID : 4
Format : UTF-8
Codec ID : S_TEXT/UTF8
Codec ID/Info : UTF-8 Plain Text
Title : Форсированные
Language : Russian
Default : Yes
Forced : No

Text #2
ID : 5
Format : UTF-8
Codec ID : S_TEXT/UTF8
Codec ID/Info : UTF-8 Plain Text
Title : Полные
Language : Russian
Default : No
Forced : No

Text #3
ID : 6
Format : UTF-8
Codec ID : S_TEXT/UTF8
Codec ID/Info : UTF-8 Plain Text
Title : Full
Language : English
Default : No
Forced : No

Text #4
ID : 7
Format : UTF-8
Codec ID : S_TEXT/UTF8
Codec ID/Info : UTF-8 Plain Text
Title : SDH
Language : English
Default : No
Forced : No

Text #5
ID : 8
Format : UTF-8
Codec ID : S_TEXT/UTF8
Codec ID/Info : UTF-8 Plain Text
Title : SDH-Colored
Language : English
Default : No
Forced : No

Menu
00:00:00.000 : :1
00:03:54.734 : :2
00:07:49.761 : :3
00:14:28.034 : :4
00:20:43.534 : :5
00:26:18.160 : :6
00:28:45.974 : :7
00:37:46.473 : :8
00:42:07.608 : :9
00:50:33.614 : :10
00:56:00.482 : :11
01:05:09.864 : :12
01:12:09.325 : :13
01:18:21.030 : :14
01:25:07.144 : :15
01:32:55.653 : :16
01:36:38.084 : :17
01:39:49.442 : :18
01:49:47.873 : :19
01:55:41.685 : :20
02:02:22.752 : :21[/spoiler]

Сэмпл

Как скачать ?

http://www.natorrent.site/viewtopic.php?f=89&t=12253

Пример


  • Похожие темы
    Ответы
    Просмотры
    Последнее сообщение

Вернуться в «3D video»

Кто сейчас на конференции

Сейчас этот форум просматривают: нет зарегистрированных пользователей и 2 гостя