Скачать Три икса / xXx (2002) BDRip-AVC | Solod через торрент бесплатно

Торрент [ Статус: Проверен ] Скачать Сидеров Личеров Размер
xxx.2002.1024.solod.rus.5.1.mkv.torrent
Подробнее
Скачать торрент Скачать через магнет ссылку 5 11 2.12 ГБ
Аватара пользователя
dieug
Модератор
Модератор
Сообщения: 56
Зарегистрирован: 27 мар 2016, 23:35
Контактная информация:
Три икса / xXx (2002) BDRip-AVC | Solod

Сообщение dieug » 01 сен 2016, 18:26

Название: Три икса
В оригинале: xXx
Год: 2002
Режиссёр: Роб Коэн
В ролях: Вин Дизель, Азия Ардженто, Мартон Чокаш, Сэмюэл Л. Джексон, Майкл Руф, Рихи Мюллер, Вернер Даен, Петр Якл, Ян Павел Филипенски, Том Эверетт

Описание:
Ксандер Кэйдж — спортсмен-экстремал. Этот жестокий парень может сделать то, что не в силах выполнить другие люди. Именно поэтому он привлекает к себе внимание Управления национальной безопасности. Оснащенный самой современной шпионской техникой и оружием, Кэйдж должен просочиться в русские криминальные круги, находящиеся в Праге. Ничто не может помешать этому шпиону нового поколения ХХХ выполнить свою миссию, и никто не способен отвлечь его от задания. Никто, кроме таинственной девушки Елены…

Выпущено: США
Продолжительность: 02:04:07
Жанры: Боевик, Приключения, Триллер
Перевод: Любительский одноголосый закадровый [L1] Solod

Формат: MKV
Качество: BDRip-AVC
Видео: 1024x426 (2.40:1), 23.976 fps, AVC(H264), [email protected], 2000 kbps, 0.191 bpp
Аудио: 48.0 kHz, AC3 Dolby Digital, 3/2 (L,C,R,l,r) + LFE ch, 448 kbps
Субтитры: русские, английские


[spoiler="MI"]
General
Unique ID : 1079132205975339388332987039717835208 (0xCFD553577C619AB51B98FF41A0C1C8)
Complete name : xxx.2002.1024.solod.rus.5.1.mkv
Format : Matroska
Format version : Version 4 / Version 2
File size : 2.12 GiB
Duration : 2 h 4 min
Overall bit rate : 2 448 kb/s
Movie name : xXx 2002
Released date : 2002
Encoded date : UTC 2016-08-19 17:00:49 / UTC 2016-06-02T14:25:09Z
Writing application : mkvmerge v9.3.1 ('Mask Machine') 64bit
Writing library : libebml v1.3.4 + libmatroska v1.4.5 / Lavf55.12.0

Video
ID : 1
Format : AVC
Format/Info : Advanced Video Codec
Format profile : [email protected]
Format settings, CABAC : Yes
Format settings, ReFrames : 10 frames
Codec ID : V_MPEG4/ISO/AVC
Duration : 2 h 4 min
Bit rate : 2 000 kb/s
Width : 1 024 pixels
Height : 426 pixels
Display aspect ratio : 2.40:1
Original display aspect ratio : 2.40:1
Frame rate mode : Constant
Frame rate : 23.976 (24000/1001) FPS
Color space : YUV
Chroma subsampling : 4:2:0
Bit depth : 8 bits
Scan type : Progressive
Bits/(Pixel*Frame) : 0.191
Stream size : 1.69 GiB (80%)
Writing library : x264 core 148
Encoding settings : cabac=1 / ref=10 / deblock=1:-2:-2 / analyse=0x3:0x113 / me=umh / subme=11 / psy=1 / psy_rd=1,00:0,00 / mixed_ref=1 / me_range=24 / chroma_me=1 / trellis=2 / 8x8dct=1 / cqm=0 / deadzone=21,11 / fast_pskip=1 / chroma_qp_offset=-2 / threads=6 / lookahead_threads=1 / sliced_threads=0 / nr=0 / decimate=1 / interlaced=0 / bluray_compat=0 / constrained_intra=0 / bframes=11 / b_pyramid=2 / b_adapt=1 / b_bias=0 / direct=1 / weightb=1 / open_gop=0 / weightp=2 / keyint=240 / keyint_min=24 / scenecut=40 / intra_refresh=0 / rc_lookahead=40 / rc=2pass / mbtree=1 / bitrate=2000 / ratetol=1,0 / qcomp=0,60 / qpmin=0 / qpmax=69 / qpstep=4 / cplxblur=20,0 / qblur=0,5 / vbv_maxrate=62500 / vbv_bufsize=78125 / nal_hrd=none / filler=0 / ip_ratio=1,40 / aq=1:1,00
Default : Yes
Forced : No
Color range : Limited
Color primaries : BT.709
Transfer characteristics : BT.709
Matrix coefficients : BT.709
Statistics Tags Issue : mkvmerge v9.3.1 ('Mask Machine') 64bit 2016-08-19 17:00:49 / mkvmerge v9.3.1 ('Mask Machine') 64bit 2016-08-19 17:00:49 / UTC 2016-06-02T14:25:09Z
FromStats_BitRate : 1998564
FromStats_Duration : 02:04:05.647000000
FromStats_FrameCount : 178517
FromStats_StreamSize : 1860076168

Audio
ID : 2
Format : AC-3
Format/Info : Audio Coding 3
Mode extension : CM (complete main)
Format settings, Endianness : Big
Codec ID : A_AC3
Duration : 2 h 4 min
Bit rate mode : Constant
Bit rate : 448 kb/s
Channel(s) : 6 channels
Channel positions : Front: L C R, Side: L R, LFE
Sampling rate : 48.0 kHz
Frame rate : 31.250 FPS (1536 spf)
Compression mode : Lossy
Delay relative to video : -83 ms
Stream size : 398 MiB (18%)
Title : vo solod
Language : Russian
Default : Yes
Forced : No
Statistics Tags Issue : mkvmerge v9.3.1 ('Mask Machine') 64bit 2016-08-19 17:00:49 / mkvmerge v9.3.1 ('Mask Machine') 64bit 2016-08-19 17:00:49 / UTC 2016-06-02T14:25:09Z
FromStats_BitRate : 448000
FromStats_Duration : 02:04:07.488000000
FromStats_FrameCount : 232734
FromStats_StreamSize : 417059328

Text #1
ID : 3
Format : UTF-8
Codec ID : S_TEXT/UTF8
Codec ID/Info : UTF-8 Plain Text
Title : rus full bd
Language : Russian
Default : No
Forced : No
Statistics Tags Issue : mkvmerge v9.3.1 ('Mask Machine') 64bit 2016-08-19 17:00:49 / mkvmerge v9.3.1 ('Mask Machine') 64bit 2016-08-19 17:00:49 / UTC 2016-06-02T14:25:09Z
FromStats_BitRate : 68
FromStats_Duration : 01:56:23.101000000
FromStats_FrameCount : 899
FromStats_StreamSize : 59893

Text #2
ID : 4
Format : UTF-8
Codec ID : S_TEXT/UTF8
Codec ID/Info : UTF-8 Plain Text
Title : eng full bd
Language : English
Default : No
Forced : No
Statistics Tags Issue : mkvmerge v9.3.1 ('Mask Machine') 64bit 2016-08-19 17:00:49 / mkvmerge v9.3.1 ('Mask Machine') 64bit 2016-08-19 17:00:49 / UTC 2016-06-02T14:25:09Z
FromStats_BitRate : 41
FromStats_Duration : 01:50:12.230000000
FromStats_FrameCount : 834
FromStats_StreamSize : 34195

Menu
00:00:00.000 : :Chapter 1
00:03:41.805 : :Chapter 2
00:05:39.839 : :Chapter 3
00:10:05.229 : :Chapter 4
00:12:29.081 : :Chapter 5
00:19:22.244 : :Chapter 6
00:21:51.184 : :Chapter 7
00:23:59.479 : :Chapter 8
00:27:50.752 : :Chapter 9
00:32:27.153 : :Chapter 10
00:34:18.806 : :Chapter 11
00:42:18.744 : :Chapter 12
00:45:48.787 : :Chapter 13
00:50:25.022 : :Chapter 14
00:57:09.884 : :Chapter 15
01:01:15.463 : :Chapter 16
01:04:33.870 : :Chapter 17
01:12:01.025 : :Chapter 18
01:14:50.277 : :Chapter 19
01:17:42.699 : :Chapter 20
01:20:58.895 : :Chapter 21
01:26:35.523 : :Chapter 22
01:32:43.766 : :Chapter 23
01:38:05.212 : :Chapter 24
01:39:01.143 : :Chapter 25
01:44:08.992 : :Chapter 26
01:45:56.391 : :Chapter 27
01:49:40.574 : :Chapter 28
02:04:01.851 : :Chapter 29

[/spoiler][spoiler="Screenshots"]

[/spoiler]

Как скачать ?

http://www.natorrent.site/viewtopic.php?f=89&t=12253

Пример


  • Похожие темы
    Ответы
    Просмотры
    Последнее сообщение

Вернуться в «Боевики /Action»

Кто сейчас на конференции

Сейчас этот форум просматривают: нет зарегистрированных пользователей и 2 гостя