Скачать Агорафобия / Agoraphobia (2015) WEB-DL 720p | iTunes через торрент бесплатно

Фильмы высокого разрешения в формате HD
Торрент [ Статус: Проверен ] Скачать Сидеров Личеров Размер
Agorafobiya.2015.P.WEB-DL.720p.mkv.torrent
Подробнее
Скачать торрент Скачать через магнет ссылку 10 0 2.81 ГБ
Аватара пользователя
admin
Администратор
Администратор
Сообщения: 8055
Зарегистрирован: 13 дек 2013, 01:15
Благодарил (а): 22 раза
Поблагодарили: 1 раз
Контактная информация:
Агорафобия / Agoraphobia (2015) WEB-DL 720p | iTunes

Сообщение admin » 25 сен 2016, 17:58

Название: Агорафобия
Оригинальное название: Agoraphobia
Год выхода: 2015
Жанр: ужасы, триллер
Режиссер: Лу Саймон
В ролях: Тони Тодд, Касси Скербо, Мария Олсен, Аниела МакГиннесс, Джема Калеро, Adam Brudnicki, Джули Кендалл, Роберто Эскобар, Гарри Марш, Марио Налини


О фильме: Девушка, страдающая агорафобией, наследует дом своего отца в отдаленной части архипелага Флорида-Кейс. Когда в доме начинают происходить странные вещи, она обнаруживает, что есть нечто гораздо более страшное, и оно находится рядом с ней.





Выпущено: США / Reel Heroine llc, White Lotus Productions
Продолжительность: 01:24:52
Озвучивание: Профессиональное (многоголосое) [iTunes]


Файл
Формат: MKV
Качество: WEB-DL 720p
Видео: MPEG-4 AVC, 3882 kb/s, 1280x532
Аудио: Russian / English: AC3, 384 kb/s (6 ch)
Субтитры: English
[spoiler="MI"]Format : Matroska
Format version : Version 4 / Version 2
File size : 2.81 GiB
Duration : 1h 24mn
Overall bit rate : 4 745 Kbps
Encoded date : UTC 2015-12-30 00:29:48
Writing application : mkvmerge v8.2.0 ('World of Adventure') 64bit
Writing library : libebml v1.3.1 + libmatroska v1.4.2

Video
ID : 1
Format : AVC
Format/Info : Advanced Video Codec
Format profile : [email protected]
Format settings, CABAC : No
Format settings, ReFrames : 2 frames
Codec ID : V_MPEG4/ISO/AVC
Duration : 1h 24mn
Bit rate : 3 882 Kbps
Width : 1 280 pixels
Height : 532 pixels
Display aspect ratio : 2.40:1
Frame rate mode : Constant
Frame rate : 23.976 fps
Color space : YUV
Chroma subsampling : 4:2:0
Bit depth : 8 bits
Scan type : Progressive
Bits/(Pixel*Frame) : 0.238
Stream size : 2.30 GiB (82%)
Language : English
Default : Yes
Forced : No
Color range : Limited
Color primaries : BT.709
Transfer characteristics : BT.709
Matrix coefficients : BT.709

Audio #1
ID : 2
Format : AC-3
Format/Info : Audio Coding 3
Mode extension : CM (complete main)
Format settings, Endianness : Big
Codec ID : A_AC3
Duration : 1h 24mn
Bit rate mode : Constant
Bit rate : 384 Kbps
Channel(s) : 6 channels
Channel positions : Front: L C R, Side: L R, LFE
Sampling rate : 48.0 KHz
Bit depth : 16 bits
Compression mode : Lossy
Stream size : 233 MiB (8%)
Language : Russian
Default : Yes
Forced : Yes

Audio #2
ID : 3
Format : AC-3
Format/Info : Audio Coding 3
Mode extension : CM (complete main)
Format settings, Endianness : Big
Codec ID : A_AC3
Duration : 1h 24mn
Bit rate mode : Constant
Bit rate : 384 Kbps
Channel(s) : 6 channels
Channel positions : Front: L C R, Side: L R, LFE
Sampling rate : 48.0 KHz
Bit depth : 16 bits
Compression mode : Lossy
Stream size : 233 MiB (8%)
Language : English
Default : No
Forced : No

Text
ID : 4
Format : UTF-8
Codec ID : S_TEXT/UTF8
Codec ID/Info : UTF-8 Plain Text
Language : English
Default : No
Forced : No[/spoiler]

Как скачать ?

http://www.natorrent.site/viewtopic.php?f=89&t=12253

Пример


  • Похожие темы
    Ответы
    Просмотры
    Последнее сообщение

Вернуться в «Фильмы HD»

Кто сейчас на конференции

Сейчас этот форум просматривают: нет зарегистрированных пользователей и 7 гостей