Скачать Тарзан. Легенда / The Legend of Tarzan (2016) WEB-DL 1080p | iTunes через торрент бесплатно

Фильмы высокого разрешения в формате HD
Торрент [ Статус: Проверен ] Скачать Сидеров Личеров Размер
The.Legend.of.Tarzan.2016.1080p.WEB-DL.Rus.Eng..torrent
Подробнее
Скачать торрент Скачать через магнет ссылку 0 0 4.06 ГБ
Аватара пользователя
admin
Администратор
Администратор
Сообщения: 8055
Зарегистрирован: 13 дек 2013, 01:15
Благодарил (а): 22 раза
Поблагодарили: 1 раз
Контактная информация:
Тарзан. Легенда / The Legend of Tarzan (2016) WEB-DL 1080p | iTunes

Сообщение admin » 21 сен 2016, 22:23

Название: Тарзан. Легенда
Оригинальное название: The Legend of Tarzan
Год выхода: 2016
Жанр: боевик, приключения
Режиссер: Дэвид Йэтс
В ролях: Александр Скарсгард, Марго Робби, Сэмюэл Л. Джексон, Кристоф Вальц, Джимон Хонсу, Джим Бродбент, Каспер Крамп, Хэдли Фрайзер, Женевьев О’Рейли, Саймон Расселл Бил

О фильме: Приспособившийся к жизни в Лондоне Тарзан возвращается в свой бывший дом, в джунгли, чтобы разобраться в том, что происходит в лагере горнодобывающей компании.



Выпущено: США, Великобритания, Канада
Продолжительность: 01:49:56
Озвучивание: Дублированное [iTunes]

Файл
Формат: MKV
Качество: WEB-DL 1080p
Видео: 1916x796 at 23.976 fps, MPEG-4 AVC, ~4416 kbps avg
Aудио#1: Russian: 48 kHz, AC3, 3/2 (L,C,R,l,r) + LFE ch, ~384.00 kbps avg |Дубляж, iTunes Russia|
Aудио#2: English: 48 kHz, AC3, 3/2 (L,C,R,l,r) + LFE ch, ~384.00 kbps avg
Субтитры: Russian (Forced, iTunes), Russian (iTunes), English (SDH)
[spoiler="MI"]Format : Matroska
Format version : Version 2
File size : 4.06 GiB
Duration : 1 h 49 min
Overall bit rate : 5 289 kb/s
Movie name : The Legend of Tarzan (2016) - Release for HDCLUB
Encoded date : UTC 2016-09-20 20:28:14
Writing application : mkvmerge v3.4.0 ('Rapunzel') built on May 15 2010 09:38:20
Writing library : libebml v0.8.0 + libmatroska v0.9.0

Video
ID : 1
Format : AVC
Format/Info : Advanced Video Codec
Format profile : [email protected]
Format settings, CABAC : Yes
Format settings, ReFrames : 5 frames
Codec ID : V_MPEG4/ISO/AVC
Duration : 1 h 49 min
Bit rate : 4 416 kb/s
Width : 1 916 pixels
Height : 796 pixels
Display aspect ratio : 2.40:1
Frame rate mode : Constant
Frame rate : 23.976 FPS
Color space : YUV
Chroma subsampling : 4:2:0
Bit depth : 8 bits
Scan type : Progressive
Bits/(Pixel*Frame) : 0.121
Stream size : 3.39 GiB (83%)
Title : The Legend of Tarzan (2016) - Release for HDCLUB
Language : English
Default : Yes
Forced : No
Color range : Limited
Color primaries : BT.709
Transfer characteristics : BT.709
Matrix coefficients : BT.709

Audio #1
ID : 2
Format : AC-3
Format/Info : Audio Coding 3
Mode extension : CM (complete main)
Format settings, Endianness : Big
Codec ID : A_AC3
Duration : 1 h 49 min
Bit rate mode : Constant
Bit rate : 384 kb/s
Channel(s) : 6 channels
Channel positions : Front: L C R, Side: L R, LFE
Sampling rate : 48.0 kHz
Frame rate : 31.250 FPS (1536 spf)
Compression mode : Lossy
Stream size : 302 MiB (7%)
Title : AC3 5.1 @ 384 kbps - DUB, iTunes
Language : Russian
Default : Yes
Forced : No

Audio #2
ID : 3
Format : AC-3
Format/Info : Audio Coding 3
Mode extension : CM (complete main)
Format settings, Endianness : Big
Codec ID : A_AC3
Duration : 1 h 49 min
Bit rate mode : Constant
Bit rate : 384 kb/s
Channel(s) : 6 channels
Channel positions : Front: L C R, Side: L R, LFE
Sampling rate : 48.0 kHz
Frame rate : 31.250 FPS (1536 spf)
Compression mode : Lossy
Stream size : 302 MiB (7%)
Title : AC3 5.1 @ 384 kbps
Language : English
Default : No
Forced : No

Text #1
ID : 4
Format : UTF-8
Codec ID : S_TEXT/UTF8
Codec ID/Info : UTF-8 Plain Text
Title : Forced, iTunes
Language : Russian
Default : Yes
Forced : No

Text #2
ID : 5
Format : UTF-8
Codec ID : S_TEXT/UTF8
Codec ID/Info : UTF-8 Plain Text
Title : iTunes
Language : Russian
Default : No
Forced : No

Text #3
ID : 6
Format : UTF-8
Codec ID : S_TEXT/UTF8
Codec ID/Info : UTF-8 Plain Text
Title : SDH
Language : English
Default : No
Forced : No

Menu
00:00:00.000 : en:1
00:10:56.000 : en:2
00:20:47.000 : en:3
00:28:26.000 : en:4
00:40:49.000 : en:5
00:51:03.000 : en:6
01:01:15.000 : en:7
01:10:22.000 : en:8
01:20:58.000 : en:9
01:29:09.000 : en:10
01:42:05.000 : en:11[/spoiler]

Как скачать ?

http://www.natorrent.site/viewtopic.php?f=89&t=12253

Пример


  • Похожие темы
    Ответы
    Просмотры
    Последнее сообщение

Вернуться в «Фильмы HD»

Кто сейчас на конференции

Сейчас этот форум просматривают: Google [Bot] и 15 гостей