Скачать Хлоя / Chloe (2009) BDRip 720p через торрент бесплатно

Фильмы высокого разрешения в формате HD
Торрент [ Статус: Проверен ] Скачать Сидеров Личеров Размер
Chloe.BDRip.720p.mkv.torrent
Подробнее
Скачать торрент Скачать через магнет ссылку 45 14 4.67 ГБ
Аватара пользователя
admin
Администратор
Администратор
Сообщения: 7886
Зарегистрирован: 13 дек 2013, 01:15
Благодарил (а): 22 раза
Поблагодарили: 1 раз
Контактная информация:
Хлоя / Chloe (2009) BDRip 720p

Сообщение admin » 10 сен 2017, 12:52

Название: Хлоя
Оригинальное название: Chloe
Год выхода: 2009
Жанр: триллер, драма, мелодрама, детектив
Режиссер: Атом Эгоян
В ролях: Джулианна Мур, Лиам Нисон, Аманда Сайфред, Макс Тириот, Р.Х. Томсон, Нина Добрев, Мишу Веллани, Джули Ханер, Лаура ДеКартере, Натали Лисинска

О фильме:
Кэтрин — врач, Дэвид — профессор, у них прекрасный сын. На первый взгляд, это идеальная семья. Но однажды Дэвид опаздывает на самолет и пропускает семейное торжество, посвященное его дню рождения. С этого момента Кэтрин начинает подозревать мужа в измене. Женщина заключает сделку с Хлоей, которая должна соблазнить Дэвида и предоставить подробный отчет. Но со временем отчеты становятся все более сухими, а встречи двух женщин — все более частыми…



Страна: США, Канада, Франция
Студия: Studio Canal, The Montecito Picture Company
Продолжительность: 01:36:27
Перевод: Профессиональный (дублированный) Вольга

Файл
Качество: BDRip 720p
Формат: Matroska
Видео: 1280x690 at 23.976 fps, [email protected], ~5902 kbps avg
Aудио#1: Russian: 48 kHz, AC3, 3/2 (L,C,R,l,r) + LFE ch, ~448 kbps avg |Дубляж, Вольга|
Aудио#2: English: 48 kHz, AC3, 3/2 (L,C,R,l,r) + LFE ch, ~448 kbps avg
Субтитры: English

Общее
Уникальный идентификатор : 206577916121783634285166728385536004415 (0x9B69759E9168F5308F10FAD01B6D113F)
Полное имя : Хлоя.2009.BDRip.720p.mkv
Формат : Matroska
Версия формата : Version 4 / Version 2
Размер файла : 4,67 Гбайт
Продолжительность : 1 ч. 36 м.
Общий поток : 6936 Кбит/сек
Название фильма : Rip by msltel
Дата кодирования : UTC 2017-09-09 02:06:43
Программа кодирования : mkvmerge v8.2.0 ('World of Adventure') 64bit
Библиотека кодирования : libebml v1.3.1 + libmatroska v1.4.2

Видео
Идентификатор : 1
Формат : AVC
Формат/Информация : Advanced Video Codec
Профиль формата : [email protected]
Параметр CABAC формата : Да
Параметр ReFrames формата : 9 кадров
Идентификатор кодека : V_MPEG4/ISO/AVC
Продолжительность : 1 ч. 36 м.
Битрейт : 5902 Кбит/сек
Ширина : 1280 пикселей
Высота : 690 пикселей
Соотношение сторон : 1,85:1
Режим частоты кадров : Постоянный
Частота кадров : 23,976 кадра/сек
Цветовое пространство : YUV
Субдискретизация насыщенности : 4:2:0
Битовая глубина : 8 бит
Тип развёртки : Прогрессивная
Бит/(Пиксели*Кадры) : 0.279
Размер потока : 3,98 Гбайт (85%)
Библиотека кодирования : x264 core 146 r2538 121396c
Настройки программы : cabac=1 / ref=9 / deblock=1:-3:-2 / analyse=0x3:0x113 / me=umh / subme=11 / psy=1 / psy_rd=1.00:0.15 / mixed_ref=1 / me_range=32 / chroma_me=1 / trellis=2 / 8x8dct=1 / cqm=0 / deadzone=21,11 / fast_pskip=0 / chroma_qp_offset=-3 / threads=6 / lookahead_threads=1 / sliced_threads=0 / nr=0 / decimate=1 / interlaced=0 / bluray_compat=0 / constrained_intra=0 / bframes=8 / b_pyramid=2 / b_adapt=2 / b_bias=0 / direct=1 / weightb=1 / open_gop=0 / weightp=2 / keyint=230 / keyint_min=23 / scenecut=40 / intra_refresh=0 / rc_lookahead=40 / rc=crf / mbtree=0 / crf=19.0 / qcomp=0.60 / qpmin=0 / qpmax=69 / qpstep=4 / vbv_maxrate=62500 / vbv_bufsize=78125 / crf_max=0.0 / nal_hrd=none / filler=0 / ip_ratio=1.40 / pb_ratio=1.30 / aq=1:1.00
Язык : English
Default : Да
Forced : Нет

Аудио #1
Идентификатор : 2
Формат : AC-3
Формат/Информация : Audio Coding 3
Расширение режима : CM (complete main)
Параметр Endianness формата : Big
Идентификатор кодека : A_AC3
Продолжительность : 1 ч. 36 м.
Вид битрейта : Постоянный
Битрейт : 448 Кбит/сек
Каналы : 6 каналов
Расположение каналов : Front: L C R, Side: L R, LFE
Частота : 48,0 КГц
Битовая глубина : 16 бит
Метод сжатия : С потерями
Размер потока : 309 Мбайт (6%)
Заголовок : DUB.Blu-ray Вольга
Язык : Russian
Default : Да
Forced : Нет

Аудио #2
Идентификатор : 3
Формат : AC-3
Формат/Информация : Audio Coding 3
Расширение режима : CM (complete main)
Параметр Endianness формата : Big
Идентификатор кодека : A_AC3
Продолжительность : 1 ч. 36 м.
Вид битрейта : Постоянный
Битрейт : 448 Кбит/сек
Каналы : 6 каналов
Расположение каналов : Front: L C R, Side: L R, LFE
Частота : 48,0 КГц
Битовая глубина : 16 бит
Метод сжатия : С потерями
Размер потока : 309 Мбайт (6%)
Заголовок : original
Язык : English
Default : Нет
Forced : Нет

Текст
Идентификатор : 4
Формат : UTF-8
Идентификатор кодека : S_TEXT/UTF8
Идентификатор кодека/Информация : UTF-8 Plain Text
Заголовок : английские
Язык : English
Default : Нет
Forced : Нет

Меню
00:00:00.000 : :Chapter 01
00:05:25.365 : :Chapter 02
00:11:50.667 : :Chapter 03
00:17:50.568 : :Chapter 04
00:22:28.305 : :Chapter 05
00:30:59.190 : :Chapter 06
00:34:29.525 : :Chapter 07
00:40:18.416 : :Chapter 08
00:46:51.974 : :Chapter 09
00:54:42.737 : :Chapter 10
01:02:59.983 : :Chapter 11
01:04:55.016 : :Chapter 12
01:11:34.247 : :Chapter 13
01:17:34.983 : :Chapter 14
01:20:37.582 : :Chapter 15
01:24:21.972 : :Chapter 16

Как скачать ?

http://www.natorrent.site/viewtopic.php?f=89&t=12253

Пример


  • Похожие темы
    Ответы
    Просмотры
    Последнее сообщение

Вернуться в «Фильмы HD»

Кто сейчас на конференции

Сейчас этот форум просматривают: нет зарегистрированных пользователей и 7 гостей