Скачать Ад / Inferno / Die Holle (2017) BDRip 720p через торрент бесплатно

Фильмы высокого разрешения в формате HD
Торрент [ Статус: Проверен ] Скачать Сидеров Личеров Размер
Die.Holle.2017.BDRip.720p.torrent
Подробнее
Скачать торрент Скачать через магнет ссылку 0 1 3.07 ГБ
Аватара пользователя
admin
Администратор
Администратор
Сообщения: 7886
Зарегистрирован: 13 дек 2013, 01:15
Благодарил (а): 22 раза
Поблагодарили: 1 раз
Контактная информация:
Ад / Inferno / Die Holle (2017) BDRip 720p

Сообщение admin » 10 сен 2017, 11:45

Производство: Германия, Австрия
Жанр: триллер
Год: 2017
Режиссер: Штефан Руцовицки
Актеры: Violetta Schurawlow, Тобиас Моретти, Robert Palfrader, Сэмми Шейк, Фридрих фон Тун, Муратан Муслу, Верена Альтенбергер, Стеффен Антон, Стефани Буркхард, Дениц Рауниг

Описание:
Действие разворачивается в Вене. Женщина-таксистка оказывается свидетельницей убийства в соседней квартире. Но она также была замечена убийцей, и её жизнь переворачивается. Полиция не поможет героине, но один детектив даёт ей приют…



Продолжительность: 01:31:57
Перевод: Многоголосый закадровый (Студия Актуального Кино)
Субтитры: Русские (К. Ломов), Немецкие

Качество: BDRip 720p
Видео: AVC/H.264, 1280x536, ~3.5 Mbps
Аудио 1: AC-3, 6 ch, 640 kbps - Русский (MVO)
Аудио 2: AC-3, 6 ch, 640 kbps - Немецкий (Оригинал)

General
Format : Matroska
Format version : Version 4 / Version 2
File size : 3.07 GiB
Duration : 1 h 31 min
Overall bit rate : 4 779 kb/s
Movie name : Die Holle (2017). NNM Club Video
Encoded date : UTC 2017-09-09 16:32:34
Writing application : mkvmerge v15.0.0 ('Duel with the Devil') 64-bit
Writing library : libebml v1.3.5 + libmatroska v1.4.5
Attachments : 720.log / poster.jpg

Video
ID : 1
Format : AVC
Format/Info : Advanced Video Codec
Format profile : [email protected]
Format settings, CABAC : Yes
Format settings, RefFrames : 12 frames
Codec ID : V_MPEG4/ISO/AVC
Duration : 1 h 31 min
Bit rate : 3 500 kb/s
Width : 1 280 pixels
Height : 536 pixels
Display aspect ratio : 2.40:1
Frame rate mode : Constant
Frame rate : 23.976 (24000/1001) FPS
Color space : YUV
Chroma subsampling : 4:2:0
Bit depth : 8 bits
Scan type : Progressive
Bits/(Pixel*Frame) : 0.213
Stream size : 2.25 GiB (73%)
Writing library : x264 core 152 r2851 ba24899
Encoding settings : cabac=1 / ref=12 / deblock=1:-3:-3 / analyse=0x3:0x133 / me=umh / subme=10 / psy=1 / psy_rd=1.05:0.00 / mixed_ref=1 / me_range=32 / chroma_me=1 / trellis=2 / 8x8dct=1 / cqm=0 / deadzone=21,11 / fast_pskip=0 / chroma_qp_offset=-2 / threads=6 / lookahead_threads=1 / sliced_threads=0 / nr=0 / decimate=0 / interlaced=0 / bluray_compat=0 / constrained_intra=0 / bframes=16 / b_pyramid=2 / b_adapt=2 / b_bias=0 / direct=3 / weightb=1 / open_gop=0 / weightp=2 / keyint=240 / keyint_min=23 / scenecut=40 / intra_refresh=0 / rc_lookahead=60 / rc=2pass / mbtree=0 / bitrate=3500 / ratetol=1.0 / qcomp=0.70 / qpmin=10 / qpmax=51 / qpstep=4 / cplxblur=20.0 / qblur=0.5 / vbv_maxrate=38000 / vbv_bufsize=30000 / nal_hrd=none / filler=0 / ip_ratio=1.40 / pb_ratio=1.30 / aq=3:0.85
Default : Yes
Forced : No

Audio #1
ID : 2
Format : AC-3
Format/Info : Audio Coding 3
Format settings, Endianness : Big
Codec ID : A_AC3
Duration : 1 h 31 min
Bit rate mode : Constant
Bit rate : 640 kb/s
Channel(s) : 6 channels
Channel positions : Front: L C R, Side: L R, LFE
Sampling rate : 48.0 kHz
Frame rate : 31.250 FPS (1536 SPF)
Bit depth : 16 bits
Compression mode : Lossy
Stream size : 421 MiB (13%)
Title : MVO (Студия актуального кино)
Language : Russian
Service kind : Complete Main
Default : Yes
Forced : No

Audio #2
ID : 3
Format : AC-3
Format/Info : Audio Coding 3
Format settings, Endianness : Big
Codec ID : A_AC3
Duration : 1 h 31 min
Bit rate mode : Constant
Bit rate : 640 kb/s
Channel(s) : 6 channels
Channel positions : Front: L C R, Side: L R, LFE
Sampling rate : 48.0 kHz
Frame rate : 31.250 FPS (1536 SPF)
Bit depth : 16 bits
Compression mode : Lossy
Stream size : 421 MiB (13%)
Language : German
Service kind : Complete Main
Default : No
Forced : No

Text #1
ID : 4
Format : UTF-8
Codec ID : S_TEXT/UTF8
Codec ID/Info : UTF-8 Plain Text
Duration : 1 h 27 min
Bit rate : 61 b/s
Count of elements : 699
Stream size : 39.9 KiB (0%)
Language : Russian
Default : Yes
Forced : No

Text #2
ID : 5
Format : UTF-8
Codec ID : S_TEXT/UTF8
Codec ID/Info : UTF-8 Plain Text
Duration : 1 h 27 min
Bit rate : 38 b/s
Count of elements : 690
Stream size : 24.4 KiB (0%)
Language : German
Default : No
Forced : No

Menu
00:00:00.000 : en:Chapter 1
00:06:14.874 : en:Chapter 2
00:14:18.440 : en:Chapter 3
00:21:10.477 : en:Chapter 4
00:29:13.334 : en:Chapter 5
00:35:42.348 : en:Chapter 6
00:42:46.021 : en:Chapter 7
00:51:35.509 : en:Chapter 8
00:59:23.560 : en:Chapter 9
01:06:47.211 : en:Chapter 10
01:14:21.790 : en:Chapter 11
01:21:11.867 : en:Chapter 12


Как скачать ?

http://www.natorrent.site/viewtopic.php?f=89&t=12253

Пример


  • Похожие темы
    Ответы
    Просмотры
    Последнее сообщение

Вернуться в «Фильмы HD»

Кто сейчас на конференции

Сейчас этот форум просматривают: нет зарегистрированных пользователей и 7 гостей