Скачать Трансформеры: Последний рыцарь / Transformers: The Last Knight (2017) WEB-DL 1080p | iTunes через торрент бесплатно

Фильмы высокого разрешения в формате HD
Торрент [ Статус: Проверен ] Скачать Сидеров Личеров Размер
Transformers_The_Last_Knight.2017.WEB-DL.1080p..torrent
Подробнее
Скачать торрент Скачать через магнет ссылку 0 0 6.35 ГБ
Аватара пользователя
admin
Администратор
Администратор
Сообщения: 7886
Зарегистрирован: 13 дек 2013, 01:15
Благодарил (а): 22 раза
Поблагодарили: 1 раз
Контактная информация:
Трансформеры: Последний рыцарь / Transformers: The Last Knight (2017) WEB-DL 1080p | iTunes

Сообщение admin » 07 сен 2017, 20:41

Страна: США
Производство: Paramount Pictures, Di Bonaventura Pictures, Hasbro Inc., Tom DeSanto/Don Murphy Production
Год выпуска: 2017
Жанр: фантастика, боевик, триллер, приключения
Продолжительность: 02:34:43

Режиссер: Майкл Бэй
Авторы сценария: Артур Маркам, Мэтт Холлоуэй, Кен Нолан

В ролях: Марк Уолберг, Энтони Хопкинс, Джош Дюамель, Лора Хэддок, Сантьяго Кабрера, Изабела Монер, Джеррод Кармайкл, Стэнли Туччи

Описание:
Оптимус Прайм исчез. Люди ведут войну с Трансформерами. Ключ к нашему будущему погребен в тайнах прошлого, в скрытой истории Трансформеров на Земле… Миссия по спасению мира ложится на плечи разношерстной компании, состоящей из Кейда Йегера, Бамблби, английского лорда и профессора из Оксфорда. Пришла пора действовать! Жертвы станут героями. Герои станут злодеями. Выстоит только один мир: их или наш...



Перевод: Профессиональный (полное дублирование) | iTunes
Субтитры: Русские (forced, full), английские

Файл
Качество: WEB-DL 1080p
Видео: MPEG-4 AVC, 1920x1010, 5003 Кbit/s, 23.976 fps
Звук:
Аудио #01: 48 kHz, AC3, 5.1, 384 Kbps | Дублированный | iTunes | RUS |
Аудио #02: 48 kHz, AC3, 5.1, 384 Kbps | Оригинал | ENG |

General
Unique ID : 186534998888566988770618275790083574447 (0x8C55558142172DA487679EEB0B6FCAAF)
Complete name : Transformers The Last Knight.2017.WEB-DL.1080p.mkv
Format : Matroska
Format version : Version 4 / Version 2
File size : 6.35 GiB
Duration : 2 h 34 min
Overall bit rate : 5 880 kb/s
Encoded date : UTC 2017-09-13 18:27:36
Writing application : mkvmerge v15.0.0 ('Duel with the Devil') 64-bit
Writing library : libebml v1.3.5 + libmatroska v1.4.5

Video
ID : 1
Format : AVC
Format/Info : Advanced Video Codec
Format profile : [email protected]
Format settings, CABAC : Yes
Format settings, RefFrames : 4 frames
Codec ID : V_MPEG4/ISO/AVC
Duration : 2 h 34 min
Bit rate : 5 111 kb/s
Width : 1 920 pixels
Height : 1 010 pixels
Display aspect ratio : 1.901
Frame rate mode : Constant
Frame rate : 23.976 (24000/1001) FPS
Color space : YUV
Chroma subsampling : 4:2:0
Bit depth : 8 bits
Scan type : Progressive
Bits/(Pixel*Frame) : 0.110
Stream size : 5.52 GiB (87%)
Language : English
Default : Yes
Forced : No
Color range : Limited
Color primaries : BT.709
Transfer characteristics : BT.709
Matrix coefficients : BT.709

Audio #1
ID : 2
Format : AC-3
Format/Info : Audio Coding 3
Format settings, Endianness : Big
Codec ID : A_AC3
Duration : 2 h 34 min
Bit rate mode : Constant
Bit rate : 384 kb/s
Channel(s) : 6 channels
Channel positions : Front: L C R, Side: L R, LFE
Sampling rate : 48.0 kHz
Frame rate : 31.250 FPS (1536 SPF)
Bit depth : 16 bits
Compression mode : Lossy
Stream size : 424 MiB (7%)
Title : iTunes
Language : Russian
Service kind : Complete Main
Default : Yes
Forced : No

Audio #2
ID : 3
Format : AC-3
Format/Info : Audio Coding 3
Format settings, Endianness : Big
Codec ID : A_AC3
Duration : 2 h 34 min
Bit rate mode : Constant
Bit rate : 384 kb/s
Channel(s) : 6 channels
Channel positions : Front: L C R, Side: L R, LFE
Sampling rate : 48.0 kHz
Frame rate : 31.250 FPS (1536 SPF)
Bit depth : 16 bits
Compression mode : Lossy
Stream size : 424 MiB (7%)
Title : Original
Language : English
Service kind : Complete Main
Default : No
Forced : No

Text #1
ID : 4
Format : UTF-8
Codec ID : S_TEXT/UTF8
Codec ID/Info : UTF-8 Plain Text
Duration : 2 h 33 min
Bit rate : 0 b/s
Count of elements : 28
Stream size : 1.02 KiB (0%)
Title : Forced
Language : Russian
Default : Yes
Forced : No

Text #2
ID : 5
Format : UTF-8
Codec ID : S_TEXT/UTF8
Codec ID/Info : UTF-8 Plain Text
Duration : 2 h 33 min
Bit rate : 96 b/s
Count of elements : 2315
Stream size : 109 KiB (0%)
Title : Full
Language : Russian
Default : No
Forced : No

Text #3
ID : 6
Format : UTF-8
Codec ID : S_TEXT/UTF8
Codec ID/Info : UTF-8 Plain Text
Duration : 2 h 24 min
Bit rate : 65 b/s
Count of elements : 2340
Stream size : 69.8 KiB (0%)
Title : Full
Language : English
Default : No
Forced : No

Menu
00:00:00.000 : en:1
00:06:34.000 : en:2
00:14:01.000 : en:3
00:21:43.000 : en:4
00:27:50.000 : en:5
00:33:36.000 : en:6
00:39:58.000 : en:7
00:46:48.000 : en:8
00:53:14.000 : en:9
01:01:51.000 : en:10
01:08:35.000 : en:11
01:14:25.000 : en:12
01:19:57.000 : en:13
01:29:00.000 : en:14
01:37:45.000 : en:15
01:44:43.000 : en:16
01:51:01.000 : en:17
01:57:44.000 : en:18
02:05:54.000 : en:19
02:10:38.000 : en:20
02:15:45.000 : en:21
02:21:26.000 : en:22
02:25:00.000 : en:23

Как скачать ?

http://www.natorrent.site/viewtopic.php?f=89&t=12253

Пример


  • Похожие темы
    Ответы
    Просмотры
    Последнее сообщение

Вернуться в «Фильмы HD»

Кто сейчас на конференции

Сейчас этот форум просматривают: нет зарегистрированных пользователей и 8 гостей