Скачать Вышибала: Эпический замес / Goon: Last of the Enforcers (2017) WEB-DL 1080p | Гоблин через торрент бесплатно

Фильмы высокого разрешения в формате HD
Торрент [ Статус: Проверен ] Скачать Сидеров Личеров Размер
Last_of_the_enforcers.torrent
Подробнее
Скачать торрент Скачать через магнет ссылку 1672 172 3.7 ГБ
Аватара пользователя
admin
Администратор
Администратор
Сообщения: 7886
Зарегистрирован: 13 дек 2013, 01:15
Благодарил (а): 22 раза
Поблагодарили: 1 раз
Контактная информация:
Вышибала: Эпический замес / Goon: Last of the Enforcers (2017) WEB-DL 1080p | Гоблин

Сообщение admin » 05 сен 2017, 18:00

Страна: Канада
Производство: Caramel Film, No Trace Camping
Год выпуска: 2017
Жанр: комедия, спорт
Продолжительность: 01:41:15

Режиссер: Джей Барушель
Авторы сценария: Джей Барушель, Джесси Шабо, Адам Фраттасио

В ролях: Шонн Уильям Скотт, Джей Барушель, ТиДжей Миллер, Элиша Катберт, Лив Шрайбер, Уайатт Расселл, Элисон Пилл, Ким Коутс

Описание:
Даг — хоккеист, который совершенно не умеет играть в хоккей, но запросто может положить любого с помощью своих могучих кулаков. В результате травмы ударной правой руки ему приходится покинуть хоккей. Но как смириться со скучной офисной работой, когда капитаном твоей команды становится какой-то наглый мордоворот. Дагу придётся объединиться со своим злейшим врагом, чтобы вернуться на лёд и сделать своих соперников одной левой. Больше отжига, больше беспредела!



Перевод: Авторский (одноголосый) | Дмитрий «Гоблин» Пучков
Субтитры: нет

Качество: WEB-DL 1080p
Формат: МКV
Видео кодек: AVC
Аудио кодек: АС3
Видео: 1920x802 (2.40:1), 23.976 fps, MPEG-4 AVC ~4 526 kbps avg
Аудио №1: 48.0 kHz, AC3 Dolby Digital, 3/2 (L,C,R,l,r) + LFE ch, ~384 kbps | ENG
Аудио №2: 48.0 kHz, AC3 Dolby Digital, 2/0 (L,R) ch, ~320 kbps | RUS / русская

Unique ID : 207098691091007259401835181700707690129 (0x9BCDC1CEC945A3DFA72DFF23001AA691)
Complete name : Goon.Last.of.the.Enforcers.2017.1080p.WEB-DL.DD5.1.H264.NNM-CLUB.by.netwatcher.mkv
Format : Matroska
Format version : Version 4 / Version 2
File size : 3.70 GiB
Duration : 1 h 41 min
Overall bit rate : 5 232 kb/s
Encoded date : UTC 2017-09-04 01:05:27
Writing application : mkvmerge v15.0.0 ('Duel with the Devil') 64-bit
Writing library : libebml v1.3.5 + libmatroska v1.4.5

Video
ID : 1
Format : AVC
Format/Info : Advanced Video Codec
Format profile : [email protected]
Format settings, CABAC : Yes
Format settings, ReFrames : 5 frames
Codec ID : V_MPEG4/ISO/AVC
Duration : 1 h 41 min
Bit rate : 4 526 kb/s
Width : 1 920 pixels
Height : 802 pixels
Display aspect ratio : 2.40:1
Frame rate mode : Constant
Frame rate : 23.976 FPS
Color space : YUV
Chroma subsampling : 4:2:0
Bit depth : 8 bits
Scan type : Progressive
Bits/(Pixel*Frame) : 0.123
Stream size : 3.20 GiB (87%)
Language : English
Default : Yes
Forced : No
Color range : Limited
Color primaries : BT.709
Transfer characteristics : BT.709
Matrix coefficients : BT.709

Audio #1
ID : 2
Format : AC-3
Format/Info : Audio Coding 3
Mode extension : CM (complete main)
Format settings, Endianness : Big
Codec ID : A_AC3
Duration : 1 h 41 min
Bit rate mode : Constant
Bit rate : 384 kb/s
Channel(s) : 6 channels
Channel positions : Front: L C R, Side: L R, LFE
Sampling rate : 48.0 kHz
Frame rate : 31.250 FPS (1536 spf)
Bit depth : 16 bits
Compression mode : Lossy
Stream size : 278 MiB (7%)
Title : ENG Original
Language : English
Default : No
Forced : No

Audio #2
ID : 3
Format : MPEG Audio
Format version : Version 1
Format profile : Layer 3
Mode : Joint stereo
Codec ID : A_MPEG/L3
Codec ID/Hint : MP3
Duration : 1 h 41 min
Bit rate mode : Constant
Bit rate : 320 kb/s
Channel(s) : 2 channels
Sampling rate : 48.0 kHz
Frame rate : 41.667 FPS (1152 spf)
Compression mode : Lossy
Stream size : 232 MiB (6%)
Title : RUS Goblin
Language : Russian
Default : Yes
Forced : Yes

Menu
00:00:00.000 : en:Chapter 1
00:09:48.838 : en:Chapter 2
00:17:43.979 : en:Chapter 3
00:25:36.116 : en:Chapter 4
00:34:57.968 : en:Chapter 5
00:43:01.701 : en:Chapter 6
00:51:28.916 : en:Chapter 7
01:00:24.075 : en:Chapter 8
01:08:44.866 : en:Chapter 9
01:16:52.144 : en:Chapter 10
01:25:46.343 : en:Chapter 11
01:35:23.795 : en:Chapter 12

Как скачать ?

http://www.natorrent.site/viewtopic.php?f=89&t=12253

Пример


  • Похожие темы
    Ответы
    Просмотры
    Последнее сообщение

Вернуться в «Фильмы HD»

Кто сейчас на конференции

Сейчас этот форум просматривают: Robbertta и 4 гостя