Скачать Прочь / Get Out (2017) BDRip 1080p | Лицензия через торрент бесплатно

Фильмы высокого разрешения в формате HD
Торрент [ Статус: Проверен ] Скачать Сидеров Личеров Размер
Get.Out.2017.BDRip.1080p.mkv.torrent
Подробнее
Скачать торрент Скачать через магнет ссылку 268 22 6.83 ГБ
Аватара пользователя
admin
Администратор
Администратор
Сообщения: 7886
Зарегистрирован: 13 дек 2013, 01:15
Благодарил (а): 22 раза
Поблагодарили: 1 раз
Контактная информация:
Прочь / Get Out (2017) BDRip 1080p | Лицензия

Сообщение admin » 30 авг 2017, 19:53

Название: Прочь
Оригинальное название: Get Out
Год выхода: 2017
Жанр: Ужасы, детектив
Режиссер: Джордан Пил
В ролях: Дэниэл Калуя, Эллисон Уильямс, Кэтрин Кинер, Брэдли Уитфорд, Калеб Лэндри Джонс, Маркус Хендерсон, Бетти Гэбриел, Лейкит Стэнфилд, Стивен Рут, Лил Релл

О фильме:
Знакомство с родителями подружки не предвещает молодому фотографу из Нью-Йорка ничего хорошего, ведь семья девушки принадлежит к элитному обществу и живет в уединенном загородном доме. Если бы он только знал истинную причину своего приглашения, то немедленно бросился бы прочь…



Страна: США
Студия: Blumhouse Productions, QC Entertainment
Продолжительность: 01:44:05
Перевод: Профессиональный (дублированный) | Лицензия

Файл
Формат: MKV, BDRip 1080p
Видео: MPEG-4 AVC, 9000 Кбит/с, 1920x804
Aудио#1: [RUS] AC3 | 48 KHz | 5.1 (Front: L С R Side: L R) + LFE | ~448 kbps
Субтитры: русские (форсированные)

Общее
Уникальный идентификатор : 200841151883198270887859508883955599025 (0x9718994E15579D0CAF996554F3B346B1)
Полное имя : Get.Out.(2017).BDRip.1080p.mkv
Формат : Matroska
Версия формата : Version 2
Размер файла : 6,83 Гбайт
Продолжительность : 1 ч. 44 м.
Общий поток : 9395 Кбит/сек
Название фильма : Get.Out.(2017).BDRip.1080p
Дата кодирования : UTC 2017-08-24 17:53:04
Программа кодирования : mkvmerge v5.8.0 ('No Sleep / Pillow') built on Sep 2 2012 15:37:04
Библиотека кодирования : libebml v1.2.3 + libmatroska v1.3.0

Видео
Идентификатор : 1
Формат : AVC
Формат/Информация : Advanced Video Codec
Профиль формата : [email protected]
Параметр CABAC формата : Да
Параметр ReFrames формата : 5 кадров
Идентификатор кодека : V_MPEG4/ISO/AVC
Продолжительность : 1 ч. 44 м.
Битрейт : 8950 Кбит/сек
Ширина : 1920 пикселей
Высота : 804 пикселя
Соотношение сторон : 2,40:1
Режим частоты кадров : Постоянный
Частота кадров : 23,976 (24000/1001) кадра/сек
Цветовое пространство : YUV
Субдискретизация насыщенности : 4:2:0
Битовая глубина : 8 бит
Тип развёртки : Прогрессивная
Бит/(Пиксели*Кадры) : 0.242
Размер потока : 6,37 Гбайт (93%)
Библиотека кодирования : x264 core 150 r2833kMod df79067
Настройки программы : cabac=1 / ref=5 / deblock=1:-3:-3 / analyse=0x3:0x113 / me=umh / subme=11 / psy=1 / fade_compensate=0.00 / psy_rd=1.00:0.00 / mixed_ref=1 / me_range=32 / chroma_me=1 / trellis=2 / 8x8dct=1 / cqm=0 / deadzone=21,11 / fast_pskip=0 / chroma_qp_offset=-2 / threads=12 / lookahead_threads=3 / sliced_threads=0 / nr=0 / decimate=0 / interlaced=0 / bluray_compat=0 / constrained_intra=0 / bframes=10 / b_pyramid=2 / b_adapt=2 / b_bias=0 / direct=3 / weightb=1 / open_gop=0 / weightp=2 / keyint=240 / keyint_min=23 / scenecut=40 / intra_refresh=0 / rc_lookahead=40 / rc=2pass / mbtree=0 / bitrate=8950 / ratetol=1.0 / qcomp=0.60 / qpmin=0 / qpmax=69 / qpstep=4 / cplxblur=20.0 / qblur=0.5 / vbv_maxrate=50000 / vbv_bufsize=62500 / nal_hrd=none / filler=0 / ip_ratio=1.40 / pb_ratio=1.30 / aq=3:0.70
Язык : English
Default : Да
Forced : Нет

Аудио
Идентификатор : 2
Формат : AC-3
Формат/Информация : Audio Coding 3
Расширение режима : CM (complete main)
Параметр Endianness формата : Big
Идентификатор кодека : A_AC3
Продолжительность : 1 ч. 44 м.
Вид битрейта : Постоянный
Битрейт : 448 Кбит/сек
Каналы : 6 каналов
Расположение каналов : Front: L C R, Side: L R, LFE
Частота : 48,0 КГц
Частота кадров : 31,250 кадров/сек (1536 spf)
Метод сжатия : С потерями
Размер потока : 334 Мбайт (5%)
Язык : Russian
Default : Да
Forced : Нет

Текст
Идентификатор : 3
Формат : UTF-8
Идентификатор кодека : S_TEXT/UTF8
Идентификатор кодека/Информация : UTF-8 Plain Text
Заголовок : FORCED
Язык : Russian
Default : Да
Forced : Нет

Меню
00:00:00.000 : en:Chapter 01
00:04:52.834 : en:Chapter 02
00:10:13.529 : en:Chapter 03
00:14:01.966 : en:Chapter 04
00:19:07.479 : en:Chapter 05
00:21:49.391 : en:Chapter 06
00:26:07.190 : en:Chapter 07
00:30:50.974 : en:Chapter 08
00:37:19.487 : en:Chapter 09
00:42:16.825 : en:Chapter 10
00:48:03.171 : en:Chapter 11
00:54:13.583 : en:Chapter 12
00:57:38.288 : en:Chapter 13
01:03:33.810 : en:Chapter 14
01:10:48.911 : en:Chapter 15
01:15:36.114 : en:Chapter 16
01:22:02.459 : en:Chapter 17
01:26:13.418 : en:Chapter 18
01:32:24.413 : en:Chapter 19
01:40:22.391 : en:Chapter 20

Как скачать ?

http://www.natorrent.site/viewtopic.php?f=89&t=12253

Пример


  • Похожие темы
    Ответы
    Просмотры
    Последнее сообщение

Вернуться в «Фильмы HD»

Кто сейчас на конференции

Сейчас этот форум просматривают: нет зарегистрированных пользователей и 6 гостей