Скачать Чудо-женщина / Wonder Woman (2017) WEB-DL 1080p | iTunes через торрент бесплатно

Фильмы высокого разрешения в формате HD
Торрент [ Статус: Проверен ] Скачать Сидеров Личеров Размер
Wonder.Woman.2017.WEB.1080p.mkv.torrent
Подробнее
Скачать торрент Скачать через магнет ссылку 1831 481 9.81 ГБ
Аватара пользователя
admin
Администратор
Администратор
Сообщения: 7886
Зарегистрирован: 13 дек 2013, 01:15
Благодарил (а): 22 раза
Поблагодарили: 1 раз
Контактная информация:
Чудо-женщина / Wonder Woman (2017) WEB-DL 1080p | iTunes

Сообщение admin » 30 авг 2017, 19:28

Название: Чудо-женщина
Оригинальное название: Wonder Woman
Год выхода: 2017
Жанр: Фантастика, Фэнтези, Боевик
Режиссер: Пэтти Дженкинс
В ролях: Галь Гадот, Дэвид Тьюлис, Робин Райт, Крис Пайн, Конни Нильсен, Люси Дэвис, Елена Анайя, Юэн Бремнер, Дэнни Хьюстон, Даутцен Крёз

О фильме:
Перед тем как стать Чудо-Женщиной, она была Дианой — принцессой амазонок, обученной быть непобедимой воительницей. И когда на берегах огражденного от внешнего мира райского острова, который служил ей родиной, терпит крушение американский пилот и рассказывает о серьезном конфликте, бушующем во внешнем мире, Диана покидает свой дом, чтобы справиться с этой угрозой. И там, сражаясь бок о бок с человеком в войне за мир, Диана обнаружит всю полноту своей власти… и свое истинное предназначение.



Страна: США
Студия: DC Entertainment, Warner Bros. Pictures
Продолжительность: 02:21:13
Перевод: Дублированный (iTunes)

Файл
Кодек: MPEG-4 AVC
Качество: WEB-DL 1080p
Видео: AVC/H.264, 1920x800, 8530 kbps, 23.976 fps
Звук:
Аудио 1: AC-3, 6 ch, 384 Kbps, CBR - Русский
Аудио 2: AC-3, 2 ch, 192 Kbps, CBR - Украинский
Аудио 3: AC-3, 6 ch, 640 Kbps, CBR - Английский
Субтитры: Русские (форс, полные), украинские (форс), английские (полные)

Общее
Уникальный идентификатор : 233261466592303274004608702740966543185 (0xAF7C863B06E705EF9B8D29C66CEE0F51)
Полное имя : Wonder.Woman.2017.WEB.1080p.mkv
Формат : Matroska
Версия формата : Version 2
Размер файла : 9,81 Гбайт
Продолжительность : 2 ч. 21 м.
Режим общего битрейта : Переменный
Общий поток : 9944 Кбит/сек
Дата кодирования : UTC 2017-08-29 19:49:45
Программа кодирования : mkvmerge v4.0.0 ('The Stars were mine') сборка от Jun 6 2010 16:18:42
Библиотека кодирования : libebml v1.0.0 + libmatroska v1.0.0

Видео
Идентификатор : 1
Формат : AVC
Формат/Информация : Advanced Video Codec
Профиль формата : [email protected]
Параметр CABAC формата : Да
Параметр RefFrames формата : 4 кадра
Идентификатор кодека : V_MPEG4/ISO/AVC
Продолжительность : 2 ч. 21 м.
Вид битрейта : Переменный
Битрейт : 8530 Кбит/сек
Максимальный битрейт : 15,0 Мбит/сек
Ширина : 1920 пикселей
Высота : 800 пикселей
Соотношение сторон : 2,40:1
Режим частоты кадров : Постоянный
Частота кадров : 23,976 (24000/1001) кадра/сек
Цветовое пространство : YUV
Субдискретизация насыщенности : 4:2:0
Битовая глубина : 8 бит
Тип развёртки : Прогрессивная
Бит/(Пиксели*Кадры) : 0.232
Размер потока : 8,41 Гбайт (86%)
Язык : English
Default : Нет
Forced : Нет
Цветовой диапазон : Limited
Основные цвета : BT.709
Характеристики трансфера : BT.709
Коэффициенты матрицы : BT.709

Аудио #1
Идентификатор : 2
Формат : AC-3
Формат/Информация : Audio Coding 3
Параметр Endianness формата : Big
Идентификатор кодека : A_AC3
Продолжительность : 2 ч. 21 м.
Вид битрейта : Постоянный
Битрейт : 384 Кбит/сек
Каналы : 6 каналов
Расположение каналов : Front: L C R, Side: L R, LFE
Частота : 48,0 КГц
Частота кадров : 31,250 кадров/сек (1536 SPF)
Битовая глубина : 16 бит
Метод сжатия : С потерями
Размер потока : 388 Мбайт (4%)
Язык : Russian
ServiceKind : Complete Main
Default : Да
Forced : Нет

Аудио #2
Идентификатор : 3
Формат : AC-3
Формат/Информация : Audio Coding 3
Параметр Endianness формата : Big
Идентификатор кодека : A_AC3
Продолжительность : 2 ч. 21 м.
Вид битрейта : Постоянный
Битрейт : 192 Кбит/сек
Каналы : 2 канала
Расположение каналов : Front: L R
Частота : 48,0 КГц
Частота кадров : 31,250 кадров/сек (1536 SPF)
Битовая глубина : 16 бит
Метод сжатия : С потерями
Размер потока : 194 Мбайт (2%)
Язык : Ukrainian
ServiceKind : Complete Main
Default : Нет
Forced : Нет

Аудио #3
Идентификатор : 4
Формат : AC-3
Формат/Информация : Audio Coding 3
Параметр Endianness формата : Big
Идентификатор кодека : A_AC3
Продолжительность : 2 ч. 21 м.
Вид битрейта : Постоянный
Битрейт : 640 Кбит/сек
Каналы : 6 каналов
Расположение каналов : Front: L C R, Side: L R, LFE
Частота : 48,0 КГц
Частота кадров : 31,250 кадров/сек (1536 SPF)
Битовая глубина : 16 бит
Метод сжатия : С потерями
Размер потока : 646 Мбайт (6%)
Язык : English
ServiceKind : Complete Main
Default : Нет
Forced : Нет

Текст #1
Идентификатор : 5
Формат : UTF-8
Идентификатор кодека : S_TEXT/UTF8
Идентификатор кодека/Информация : UTF-8 Plain Text
Заголовок : Forced
Язык : Russian
Default : Да
Forced : Нет

Текст #2
Идентификатор : 6
Формат : UTF-8
Идентификатор кодека : S_TEXT/UTF8
Идентификатор кодека/Информация : UTF-8 Plain Text
Заголовок : Full
Язык : Russian
Default : Нет
Forced : Нет

Текст #3
Идентификатор : 7
Формат : UTF-8
Идентификатор кодека : S_TEXT/UTF8
Идентификатор кодека/Информация : UTF-8 Plain Text
Заголовок : Forced
Язык : Ukrainian
Default : Нет
Forced : Нет

Текст #4
Идентификатор : 8
Формат : UTF-8
Идентификатор кодека : S_TEXT/UTF8
Идентификатор кодека/Информация : UTF-8 Plain Text
Язык : English
Default : Нет
Forced : Нет

Меню
00:00:00.000 : en:Studio Logo
00:00:45.000 : en:Story of mankind and creation of Amazons
00:10:25.000 : en:Atiope trains Diana harder than ever
00:17:31.000 : en:Someone infiltrates the island and the surprise attack
00:23:11.000 : en:Trevor tells the Amazonians about the war raging the world
00:28:03.000 : en:Diana makes up her mind to save the mankind
00:35:27.000 : en:Diana and Trevor leave the island
00:43:53.000 : en:Diana arrives in London and clothes to fit in society
00:52:12.000 : en:Trevor is being followed
00:54:24.000 : en:Trevor hands over the notebook and secrets it revealed
01:00:28.000 : en:Trevor goes against the system, making a team
01:07:37.000 : en:Ludendorff is not ready to give in
01:12:22.000 : en:Diana can't sit on the sidelines anymore
01:24:07.000 : en:Favorite pass time when there is no war to fight
01:29:15.000 : en:Attending the gala and Diana understands the way of the world
01:45:10.000 : en:Diana finally meets Ares who shows her the truth
01:57:41.000 : en:Diana understand the flaws of humanity to save them
02:06:40.000 : en:Only love can save this humankind
02:10:40.000 : en:End Credits

Как скачать ?

http://www.natorrent.site/viewtopic.php?f=89&t=12253

Пример


  • Похожие темы
    Ответы
    Просмотры
    Последнее сообщение

Вернуться в «Фильмы HD»

Кто сейчас на конференции

Сейчас этот форум просматривают: Google [Bot] и 7 гостей